User:      Hasło:     





User Info
User:
Hasło:
Stwórz kontoOdzyskiwanie hasła


Kategorie

Seriale

Anime

Dla Dzieci

Muzyka

Gry

GSM/PDA

Ksiazki

Programy

Inne



Krucyfiks - The Crucifixion *2017* [720p WEB-DL XviD AC3-FGT] [ENG]


Kategoria: Filmy DivX/XviD

Gatunek: Horror

Dodał:  Dezerter33
Data dodania: 
08-10-2017
Rozmiar: 3.12 GB

Seedów: 95
Peerów: 51
Ukończone: 537

Pobrany: 119

Kondycja:

Pobierz



Produkcja: Wielka Brytania, Rumunia
Gatunek: Horror
Premiera: 13 października 2017 (Polska), 1 lipca 2017 (świat)
Reżyseria: Xavier Gens
Scenariusz: Carey Hayes, Chad Hayes




Do więziennej celi trafia ojciec Anton, ksiądz, skazany za zabójstwo opętanej zakonnicy, nad którą sprawował egzorcyzmy. Jego sprawą interesuje się zdolna dziennikarka śledcza Nicole Rawlins. Reporterka nie przepuści żadnej okazji, aby pokazać światu daleko idące nieprawidłowości w działaniu organizacji kościelnej. Nicole wyrusza w podróż do niewielkiego miasteczka w odległej Rumunii, gdzie miały miejsce tajemnicze zdarzenia. Na miejscu okazuje się, że sprawa jest jeszcze bardziej skomplikowana niż wydawało się to na początku, a atmosfera zagęszcza się z każdą minutą. Dziennikarka dąży do poznania prawdy. Czy duchowny rzeczywiście zamordował chorą psychicznie osobę, czy też przegrał walkę z demoniczną obecnością?




Sophie Cookson .... Nicole Rawlins
Corneliu Ulici .... Ojciec Anton
Ada Lupu .... Vaduva
Brittany Ashworth .... Biskup Gornik
Matthew Zajac .... Tavian




Video
ID : 0
Format : MPEG-4 Visual
Format profile : [email protected]
Format settings, BVOP : No
Format settings, QPel : No
Format settings, GMC : No warppoints
Format settings, Matrix : Default (H.263)
Codec ID : XVID
Codec ID/Hint : XviD
Duration : 1 h 29 min
Bit rate : 4 582 kb/s
Width : 1 280 pixels
Height : 538 pixels
Display aspect ratio : 2.40:1
Frame rate : 23.976 (24000/1001) FPS
Color space : YUV
Chroma subsampling : 4:2:0
Bit depth : 8 bits
Scan type : Progressive
Compression mode : Lossy
Bits/(Pixel*Frame) : 0.278
Stream size : 2.88 GiB (92%)
Writing library : Lavc57.100.103

Audio
ID : 1
Format : AC-3
Format/Info : Audio Coding 3
Format settings, Endianness : Big
Codec ID : 2000
Duration : 1 h 29 min
Bit rate mode : Constant
Bit rate : 384 kb/s
Channel(s) : 6 channels
Channel positions : Front: L C R, Side: L R, LFE
Sampling rate : 48.0 kHz
Frame rate : 31.250 FPS (1536 spf)
Bit depth : 16 bits
Compression mode : Lossy
Stream size : 247 MiB (8%)
Alignment : Aligned on interleaves
Interleave, duration : 42 ms (1.00 video frame)
Interleave, preload duration : 512 ms
Service kind : Complete Main
Pliki
 [Pokaż/ukryj Pliki]
(2) files
Ocena N/A
Tracker
Podobne
Nie znaleziono podobnych tytułów!


Komentarze


Brak Komentarzy!!!